Terra Nova [TEMP1][xx/13][DVDRIP][350MB][ENG+SUB]

Tema en 'Descargas de Anime' iniciado por avechuche, 27 Sep 2011.

  1. ave

    avechuche
    Expand Collapse
    Cabo

    Mensajes:
    112
    Me Gusta recibidos:
    1
    [​IMG]

    [size=+2]Terra Nova [TEMP1][xx/13][DVDRIP][350MB][ENG+SUB][/size]





    [​IMG]

    En el año 2149, un momento en que toda la vida en el planeta Tierra está en peligro de extinción. En un esfuerzo por salvar la raza humana, los científicos desarrollan una máquina del tiempo permitiendo a la gente viajar a las 85 millones de años atrás en el tiempo a la Tierra prehistórica. La familia de Shannon se unen a la peregrinación de la décima parte de los colonos de Terra Nova, la primera colonia humana en el otro lado de la puerta temporal. Sin embargo, no son conscientes de que la colonia se encuentra en medio...

    [​IMG]

    [​IMG]

    [​IMG]

    Format : AVI
    Format/Info : Audio Video Interleave
    File size : 700 MiB
    Duration : 1h 25mn
    Overall bit rate : 1 150 Kbps
    Writing application : transcode-1.0.4

    Video
    ID : 0
    Format : MPEG-4 Visual
    Format profile : Advanced Simple@L5
    Format settings, BVOP : 2
    Format settings, QPel : No
    Format settings, GMC : No warppoints
    Format settings, Matrix : Default (H.263)
    Codec ID : XVID
    Codec ID/Hint : XviD
    Duration : 1h 25mn
    Bit rate : 991 Kbps
    Width : 624 pixels
    Height : 352 pixels
    Display aspect ratio : 16:9
    Frame rate : 23.976 fps
    Color space : YUV
    Chroma subsampling : 4:2:0
    Bit depth : 8 bits
    Scan type : Progressive
    Compression mode : Lossy
    Bits/(Pixel*Frame) : 0.188
    Stream size : 603 MiB (86%)
    Writing library : XviD 1.2.1 (UTC 2008-12-04)

    Audio
    ID : 1
    Format : MPEG Audio
    Format version : Version 1
    Format profile : Layer 3
    Codec ID : 55
    Codec ID/Hint : MP3
    Duration : 1h 25mn
    Bit rate mode : Variable
    Bit rate : 128 Kbps
    Channel(s) : 2 channels
    Sampling rate : 48.0 KHz
    Compression mode : Lossy
    Stream size : 89.0 MiB (13%)
    Alignment : Aligned on interleaves
    Interleave, duration : 24 ms (0.58 video frame

    Contraseña: @vechuche
    Servidor: FileServe.com y Filesonic.com (Links intercambiables)
    Partes: 1 parte por capítulo
    Descarga: DLC, links y Click*n*Load 2
    Idioma: Inglés con subtítulos en español
    Atención: Si la contraseña les da incorrecta, tipeenla de nuevo, copien y peguen o comprueben que el archivo se bajo correctamente ...


    [​IMG]





    [​IMG]

    [​IMG]
    [​IMG]
    [​IMG]

    [​IMG]

    [​IMG]

    [​IMG]
    [​IMG]

    Código:
    [center]http://fileserve.com/list/6Chcxbw
    http://www.filesonic.com/folder/a9cfc7c4e4001f4a2[/center]

    [size=+2]Subtítulos[/size]

    Código:
    [center]http://www.subtitulos.es/[/center]

    [​IMG]

    [​IMG]

    [size=+2]@vechuche[/size]

    [​IMG]

    [​IMG]

    Código:
    [center]http://linksave.in/4507767004dcacaa34d0df[/center]
     

Compartir esta página