The Mentalist [TEMP4][XX/24][DVDRIP][350MB][ENG+SU...

Tema en 'Descargas de Anime' iniciado por avechuche, 23 Sep 2011.

  1. ave

    avechuche
    Expand Collapse
    Cabo

    Mensajes:
    112
    Me Gusta recibidos:
    1
    [​IMG]

    [size=+2]The Mentalist [TEMP4][XX/24][DVDRIP][350MB][ENG+SUB][/size]





    [​IMG]

    Patrick Jane (Simon Baker) es un mentalista que, tras burlarse de un asesino en serie conocido cómo John el rojo (Red John), encuentra asesinadas a su mujer e hija. Tras un paso por el psiquiátrico, decide unirse al Centro de Investigaciones de California -junto al equipo de Teresa Lisbon (Robin Tunney)- para ofrecer su ayuda y, además, encontrar al asesino de su familia.

    [​IMG]

    [​IMG]

    Format : AVI
    Format/Info : Audio Video Interleave
    File size : 350 MiB
    Duration : 42mn 13s
    Overall bit rate : 1 159 Kbps
    Writing application : Some super fast AVI muxer

    Video
    ID : 0
    Format : MPEG-4 Visual
    Format profile : Advanced Simple@L5
    Format settings, BVOP : 2
    Format settings, QPel : No
    Format settings, GMC : No warppoints
    Format settings, Matrix : Default (H.263)
    Codec ID : XVID
    Codec ID/Hint : XviD
    Duration : 42mn 13s
    Bit rate : 1 000 Kbps
    Width : 624 pixels
    Height : 352 pixels
    Display aspect ratio : 16:9
    Frame rate : 23.976 fps
    Color space : YUV
    Chroma subsampling : 4:2:0
    Bit depth : 8 bits
    Scan type : Progressive
    Compression mode : Lossy
    Bits/(Pixel*Frame) : 0.190
    Stream size : 302 MiB (86%)
    Writing library : XviD 70

    Audio
    ID : 1
    Format : MPEG Audio
    Format version : Version 1
    Format profile : Layer 3
    Codec ID : 55
    Codec ID/Hint : MP3
    Duration : 42mn 13s
    Bit rate mode : Variable
    Bit rate : 146 Kbps
    Channel(s) : 2 channels
    Sampling rate : 48.0 KHz
    Compression mode : Lossy
    Stream size : 44.1 MiB (13%)
    Alignment : Aligned on interleaves
    Interleave, duration : 24 ms (0.58 video frame)
    Interleave, preload duration : 39 ms


    [​IMG]

    Contraseña: @vechuche
    Servidor: FileServe.com y Filesonic.com (Links intercambiables)
    Partes: 1 parte por capítulo
    Descarga: DLC, links y Click*n*Load 2
    Idioma: Inglés con subtítulos en español
    Atención: Si la contraseña les da incorrecta, tipeenla de nuevo, copien y peguen o comprueben que el archivo se bajo correctamente ...


    [​IMG]





    [​IMG]

    [​IMG]
    [​IMG]
    [​IMG]

    [​IMG]

    [​IMG]

    [​IMG]
    [​IMG]

    Código:
    [center]http://fileserve.com/list/FqqMJHu
    http://www.filesonic.com/folder/12032501[/center]

    [size=+2]Subtítulos[/size]

    Código:
    [center]http://www.subtitulos.es/show/65[/center]

    [​IMG]

    [​IMG]

    [size=+2]@vechuche[/size]

    [​IMG]

    [​IMG]

    Código:
    [center]http://linksave.in/4507767004dcacaa34d0df[/center]
     

Compartir esta página